Chris Rea - Montreux Jazz Festival 2014. [2014, Rock/blues, HDTVRip]

Страницы:  1

Модераторы

Ответить
Статистика раздачи
Размер:  741.1 MB   |   Зарегистрирован:  8 месяцев   |   .torrent скачан:  240 раз
Сиды:  2   Личи:  1
Автор
Сообщение

kosty loganok

Top Seed 06* 1280r

Стаж: 8 лет 5 месяцев

Сообщений: 4056

flag

kosty loganok · 13-Окт-17 17:20 (8 месяцев назад, ред. 13-Окт-17 17:22)

 

Chris Rea - Montreux Jazz Festival 2014. Жанр: Rock/blues
Продолжительность: 00:50:42.
Год выпуска: 2014
Описание: Кристофер «Крис» Энтон Ри (англ. Christopher Anton Rea, род. 4 марта 1951, Мидлсбро, Северный Йоркшир, Англия) — британский певец и автор песен, известный своим характерным хриплым голосом и игрой на слайд-гитаре.
Вершины своего успеха певец добился в конце 1980-х — начале 1990-х годов, с выпуском своего десятого студийного альбома «The Road to Hell» (1989), который многие считают одним из его лучших, а также с последующим альбомом «Auberge» (1991).

(материалом поделился ув. meloman67 )
Треклист:
01. Last Open Road
02. Long Gone
03. Where the Blues Come From
04. Josephine
05. The Truth
06. 'Til The Morning Sun Shines on My Love and Me
07. Still So Far to Go
08. Stainsby Girls
09. The Road to Hell

Доп. информация: по видео
скрытый текст
Полное имя Chris Rea - Montreux Jazz Festival 2014.avi
Формат : AVI
Формат/Информация : Audio Video Interleave
Размер файла : 741 Мбайт
Продолжительность : 50 м.
Общий поток : 2043 Кбит/сек
Программа кодирования : Lavf51.12.1
Видео
Идентификатор : 0
Формат : xvid
Идентификатор кодека : xvid
Продолжительность : 50 м.
Битрейт : 1840 Кбит/сек
Ширина : 656 пикселей
Высота : 368 пикселей
Соотношение сторон : 16:9
Частота кадров : 25,000 кадров/сек
Бит/(Пиксели*Кадры) : 0.305
Размер потока : 667 Мбайт (90%)
Аудио
Идентификатор : 1
Формат : AC-3
Формат/Информация : Audio Coding 3
Расширение режима : CM (complete main)
Параметр Endianness формата : Big
Идентификатор кодека : 2000
Продолжительность : 50 м.
Вид битрейта : Постоянный
Битрейт : 192 Кбит/сек
Каналы : 2 канала
Расположение каналов : Front: L R
Частота : 48,0 КГц
Битовая глубина : 16 бит
Метод сжатия : С потерями
Размер потока : 69,6 Мбайт (9%)
Выравнивание : Соединение по промежуткам
Продолжительность промежутка : 32 мс. (0,80 видеокадр)
Источник: собственный рип
Cсылка http://ROSTRACKER.XYZ/viewtopic.php?t=4840073
Качество: HDTVRip
Контейнер: AVI
Видео кодек: XviD
Аудио кодек: AC3
Видео: 656x368 (1.78:1), 25 fps, XviD build 63 ~1840 kbps avg, 0.30 bit/pixel
Аудио: 48 kHz, AC3 Dolby Digital, 2/0 (L,R) ch, ~192.00 kbps avg
Скриншоты
Мои другие раздачи 1 - http://ROSTRACKER.XYZ/tracker.php?rid=14861751
Мои другие раздачи 2- http://ROSTRACKER.XYZ/tracker.php?rid=26740408Приятного просмотра!
Зарегистрирован:
  • 13-Окт-17 17:20
  • Скачан: 240 раз

Скачать .torrent

Скачать .torrent

15 KB

Тип: обычная
Статус: * не проверено
Размер: 741.1 MB  ·  magnet24943FB51F170C645C08CB6D8E79F24B6B938499
  • Свернуть поддиректории
  • Развернуть
  • Переключить
  • Увел./умен. окно
загружается...
Последние поблагодарившие

не все то золото что блестит

bot · 15-Окт-17 14:31 (спустя 1 день 21 час)

Тема была перенесена из форума Rock (Видео) в форум Джаз и Блюз (Видео)
oleg-1937
 
 
Loading...
Error