2 видеолекций про смерть:1 Истина не фантазия.2 Последний мгновения жизни. / Maut Rus [Видеолекция.Frankly Speaking]

Статистика раздачи
Размер:  502.6 MB   |   Зарегистрирован:  7 лет 5 месяцев   |   .torrent скачан:  600 раз

Полный источник: не было 2 месяца 25 дней

Автор
Сообщение

кактуссс1

Top Seed 02* 80r

Стаж: 8 лет 4 месяца

Сообщений: 309

flag

кактуссс1 · 31-Дек-10 21:29 (7 лет 5 месяцев назад, ред. 27-Июн-11 23:45)

 

2 видеолекций про смерть:1 Истина не фантазия.2 Последний мгновения жизни. / Maut Rus
Страна: Саудовская Аравия
Жанр: Видеолекция ислам
Продолжительность: 01.40.38
Перевод: Любителький (одноголосый)
Русские субтитры: есть
Ведущий:Шейх Набиль аль-Авади
Описание: 3:185 Каждая душа вкусит смерть, но только в День воскресения вы получите вашу плату сполна. Кто будет удален от Огня и введен в Рай, тот обретет успех, а земная жизнь - всего лишь наслаждение обольщением.
23:99 Когда же смерть подступает к кому-нибудь из них, он говорит: «Господи! Верни меня обратно.
23:100 Быть может, я стану совершать праведные поступки, которые я отбросил». Но нет! Это - всего лишь слова, которые он произносит. Позади них будет преграда вплоть до того дня, когда они будут воскрешены.
75:26 Но нет! Когда она (душа) достигнет ключицы,
75:27 будет сказано: «Кто же прочтет заклинание?»
75:28 Он (умирающий) поймет, что наступило расставание.
75:29 Голень сойдется с голенью (тяготы мирской жизни объединятся с тяготами последней жизни или голени человека будут сложены вместе в саване),
75:30 и в тот день его пригонят к твоему Господу.
75:31 Он не уверовал и не совершал намаз.
75:32 Напротив, он счел это ложью и отвернулся,
75:33 а затем горделиво отправился к своей семье.
75:34 Горе тебе, горе!
75:35 Еще раз горе тебе, горе!
75:36 Неужели человек полагает, что он будет оставлен без присмотра?
75:37 Разве он не был каплей из семени источаемого?
75:38 Потом он превратился в сгусток крови, после чего Он создал его и придал ему соразмерный облик.
75:39 Он сотворил из него чету: мужчину и женщину.
75:40 Неужели Он не способен воскресить мертвых?
формат : Windows Media
Размер файла : 361 Мбайт
Продолжительность : 44 м.
Режим общего битрейта : Постоянный
Общий поток : 1130 Кбит/сек
Максимальный общий битрейт : 1140 Кбит/сек
Название фильма : Без имени
Дата кодирования : UTC 2010-01-14 18:41:35.953
Application : Windows Movie Maker 2.1.4026.0
Видео
Идентификатор : 2
Формат : VC-1
Профиль формата : MP@ML
Идентификатор кодека : WMV3
Идентификатор кодека/Информация : Windows Media Video 9
Идентификатор кодека/Подсказка : WMV3
Описание кодека : Windows Media Video 9
Продолжительность : 44 м.
Вид битрейта : Постоянный
Битрейт : 1000 Кбит/сек
Ширина : 640 пикс.
Высота : 480 пикс.
Соотношение сторон : 4:3
Частота кадров : 25,000 кадр/сек
Битовая глубина : 8 бит
Тип развёртки : Прогрессивная
Метод сжатия : С потерями
Бит/(Пиксели*Кадры) : 0.130
Размер потока : 319 Мбайт (88%)
Язык : Russian
Аудио
Идентификатор : 1
Формат : WMA
Версия формата : Version 2
Идентификатор кодека : 161
Идентификатор кодека/Информация : Windows Media Audio
Описание кодека : Windows Media Audio 9.2 - 128 kbps, 44 kHz, stereo (A/V) 1-pass CBR
Продолжительность : 44 м.
Вид битрейта : Постоянный
Битрейт : 128 Кбит/сек
Канал(ы) : 2 канала(ов)
Частота : 44,1 КГц
Битовая глубина : 16 бит
Размер потока : 40,9 Мбайт (11%)

ЗДЕСЬ МОИ РАЗДАЧИ!
Зарегистрирован:
  • 31-Дек-10 21:29
  • Скачан: 600 раз

Скачать .torrent

Скачать .torrent

20 KB

Тип: обычная
Статус: проверено
Размер: 502.6 MB  ·  magnet91DF54B06086CBE484945F6D682032CF5168D18D
  • Свернуть поддиректории
  • Развернуть
  • Переключить
  • Увел./умен. окно
загружается...

BELL$

VIP (Заслуженный)

Стаж: 10 лет 1 месяц

Сообщений: 3470

flag

BELL$ · 31-Дек-10 23:06 (спустя 1 час 37 мин.)

По какому принципу объединены фильмы? В личку

Light_of_Moon

Стаж: 9 лет 4 месяца

Сообщений: 250

flag

Light_of_Moon · 05-Янв-11 23:49 (спустя 5 дней)

Первый скрин ....помойму я это уже где то видел... в фильме про хадж мекку

paolo_inside

Стаж: 9 лет 5 месяцев

Сообщений: 20

flag

paolo_inside · 16-Дек-13 10:08 (спустя 2 года 11 месяцев)

что это?? прост какая нарезка?
 
Loading...
Error