Пуля-дура. Возвращение агента / Сезон 1 / Серии: 1-4 из 4 (Валерий Чиков) [2008, Детектив, DVB]

Страницы:  1

Модераторы

Ответить
Статистика раздачи
Размер:  5.36 GB   |   Зарегистрирован:  5 лет 2 месяца   |   .torrent скачан:  874 раза
Сиды:  4
Автор
Сообщение

Серый1779

Top Seed 08* 5120r

Стаж: 8 лет 1 месяц

Сообщений: 7857

flag

Серый1779 · 04-Апр-13 15:50 (5 лет 2 месяца назад, ред. 04-Апр-13 21:01)

 

Пуля-дура. Возвращение агента
Год выпуска: 2008
Производство: Фаворит-фильм, по заказу студии Телепроект
Жанр: Детектив
Продолжительность: ~0:43:00 серия
Субтитры: Украинские (вшитые)
Режиссёр: Валерий Чиков
В ролях: Сергей Горобченко, Алексей Колган, Анатолий Кузнецов, Лев Дуров, Игорь Гордин, Евгений Косырев, Ольга Сёмина, Владимир Стержаков, Сергей Фролов, Александра Живова

Описание: Бывший суперагент, а ныне — частный детектив Уточкин берется за дела любой сложности, если в них замешана прекрасная незнакомка. Вот и на этот раз он отправляется на поиски очередного приключения. Удастся ли ему снова выйти сухим из воды?
В уличном кафе происходит случайное знакомство Боба Уточкина с фотомоделью по имени Юля, которая пробуется на роль в кино. Оказывается, в уличном кафе Юля коротала время перед очередной фото-сессией у известного фотохудожника Нумизматова, труп которого они с Бобом неожиданно обнаруживают.
А дальше трупы влиятельных и обычных людей следуют один за другим. Но какая связь между странными убийствами
Все раздачи сериала: Пуля-дура. Возвращение агента

Качество: DVB
Формат: MPEG
Видео кодек: MPEG2
Аудио кодек: MPEG1
Видео: MPEG2 Video 768х576 @ 720x576 (4:3) 25.00fps ~4463 Kbps (0.44 bit/pixel)
Аудио: MPEG Audio 48000Hz 1 channels 192 Кбит/сек
Сторонней рекламы нет!
MediaInfo
Общее
Полное имя : G:\ФИЛЬМЫ\Пуля дура. Возвращение агента DVB\Пуля дура. Возвращение агента 01_02_серии_SATRip_by_Серый1779.mpg
Формат : MPEG-PS
Размер файла : 2,75 Гбайт
Продолжительность : 1 ч. 23 м.
Режим общего битрейта : Переменный
Общий поток : 4749 Кбит/сек
Видео
Идентификатор : 224 (0xE0)
Формат : MPEG Video
Версия формата : Version 2
Профиль формата : [email protected]
Параметр BVOP формата : Да
Параметр матрицы формата : Выборочная
Параметр GOP формата : Variable
Продолжительность : 1 ч. 23 м.
Вид битрейта : Переменный
Битрейт : 4463 Кбит/сек
Максимальный битрейт : 15,0 Мбит/сек
Ширина : 720 пикселей
Высота : 576 пикселей
Соотношение сторон : 4:3
Частота кадров : 25,000 кадров/сек
Стандарт вещания : PAL
Цветовое пространство : YUV
Субдискретизация насыщенности : 4:2:0
Битовая глубина : 8 бит
Тип развёртки : Чересстрочная
Порядок развёртки : Верхнее поле первое
Метод сжатия : С потерями
Бит/(Пиксели*Кадры) : 0.430
Размер потока : 2,59 Гбайт (94%)
Аудио
Идентификатор : 192 (0xC0)
Формат : MPEG Audio
Версия формата : Version 1
Профиль формата : Layer 2
Продолжительность : 1 ч. 23 м.
Вид битрейта : Постоянный
Битрейт : 192 Кбит/сек
Каналы : 1 канал
Частота : 48,0 КГц
Метод сжатия : С потерями
Размер потока : 114 Мбайт (4%)
Запись и монтаж:
Раздача группы:
Внимание ! Раздача ведётся путём добавления новых серий
Внимание! Раздача ведётся путём добавления новых серий; при каждом добавлении создётся новый торрент. Чтобы начать докачку новой серии, пользователям необходимо сделать следующее:
(1) остановить скачивание,
(2) удалить старый торрент у себя из клиента (старые серии удалять не надо),
(3) скачать новый торрент и запустить его у себя в клиенте вместо старого, при этом указать клиенту путь в старую папку куда и должно происходить скачивание новых серий.
Ваш клиент при этом должен произвести хеширование (проверку) старой папки (если не производит сам - помогите ему сделать это), и будет докачивать только те серии которых у вас ещё нет. Старые серии при этом не удаляются, а продолжают раздаваться!
Eсли вы уже удалили старые серии, то предотвратить повторную закачку старых серий можно, отжав галочку в соответсвующих местах при запуске нового торрента. По возможности, желательно не удалять старые серии как можно дольше чтобы релизёр не столько продолжал раздавать старые серии, а смог сконцентрироваться на новых.
ВНИМАНИЕ! ТОРРЕНТ ПЕРЕЗАЛИТ! ДОБАВЛЕНА 4-ая СЕРИИ!
Скриншоты
Зарегистрирован:
  • 04-Апр-13 19:13
  • Скачан: 874 раза

Скачать .torrent

Скачать .torrent

27 KB

Тип: обычная
Статус: проверено
Размер: 5.36 GB  ·  magnetA5F7A5A806C6184B1030C11C16C14A2D776CB97B
  • Свернуть поддиректории
  • Развернуть
  • Переключить
  • Увел./умен. окно
загружается...
Последние поблагодарившие

Сударыня

Moderator gray

Стаж: 11 лет 1 месяц

Сообщений: 10923

Сударыня · 04-Апр-13 20:54 (спустя 5 часов)

Серый1779 писал(а):
58696480Пуля-дура. Возвращение агента / Серии: 1-4 из 4 (Валерий Чиков) [2008, Детектив, DVB]
Надо сезон указать.
Самостоянье Человека – Залог Величия Его. (А.С.Пушкин)

Серый1779

Top Seed 08* 5120r

Стаж: 8 лет 1 месяц

Сообщений: 7857

flag

Серый1779 · 04-Апр-13 21:03 (спустя 8 мин.)

Сударыня писал(а):
58701322
Серый1779 писал(а):
58696480Пуля-дура. Возвращение агента / Серии: 1-4 из 4 (Валерий Чиков) [2008, Детектив, DVB]
Надо сезон указать.
Исправлено.

Сударыня

Moderator gray

Стаж: 11 лет 1 месяц

Сообщений: 10923

Сударыня · 04-Апр-13 21:03 (спустя 37 сек.)

Серый1779 писал(а):
58701489Исправлено
Благодарю.
Самостоянье Человека – Залог Величия Его. (А.С.Пушкин)

mr.Steel

Стаж: 8 лет 10 месяцев

Сообщений: 8

flag

mr.Steel · 03-Фев-15 13:14 (спустя 1 год 9 месяцев)

Зачем тут укропские вшитые субтитры?
 
Loading...
Error