Дебаты: Ричард Докинз и журналист Мехди Хасан / Встреча: Ричард Докинз о религии / Head to Head: Dawkins on religion [2012, дебаты, DVDRip] MVO (Это Работает)

Страницы:  1

Модераторы

Ответить
Статистика раздачи
Размер:  478 MB   |   Зарегистрирован:  4 года 4 месяца   |   .torrent скачан:  1,595 раз
Сиды:  5
Автор
Сообщение

Давид Степанов

Top Seed 04* 320r

Стаж: 10 лет 6 месяцев

Сообщений: 691

Давид Степанов · 22-Янв-14 23:00 (4 года 4 месяца назад, ред. 25-Авг-14 23:22)

 



Дебаты: Ричард Докинз и журналист Мехди Хасан / Встреча: Ричард Докинз о религии /
Head to Head: Dawkins on religion


Страна: Великобритания
Производство: Al Jazeera
Год: 2012
Продолжительность: 00:47:50
Жанр: Дебаты
Перевод: Любительcкий (многоголосый закадровый), студия «Это Работает»
Русские субтитры: нет

Описание:
Ричард Докинз — известнейший биолог, популяризатор науки и атеист, автор нашумевшей книги "Бог как иллюзия" — беседует с мусульманским журналистом Мехди Хасаном на тему религии, ислама, веры, политической идеологии, образования и нравственности.

Доп. информация:
Перевели: Никита Чугайнов, Дияна Аюпова. Озвучили: Глеб Филатов, Дияна Аюпова.

См. также:
Атеизм против религии: Дебаты между К. Хитченсом и А. Макгратом / Atheism vs Religion: C. Hitchens Debates A. McGrath - США, (дебаты) - 2006 г.
Четыре всадника - Докинз, Деннет, Харрис, Хитченс (часть 1 из 2) / The Four Horsemen - Discussions with Richard Dawkins (Hour 1 of 2) - Великобритания, реж. Джош Тимонен / Josh Timonen (дебаты) - 2007 г.
Дебаты IQ2: Католическая церковь – сила добра? / Is the Catholic Church a force for good in the world? - Великобтритания, участ. Стивен Фрай, Кристофер Хитченс, архиепископ Джон Онайекан, Энн Уиддеком (дебаты) - 2009 г.
Есть ли Бог? - Украина, участ. Евграф Дулуман, Александр Филоненко, Юрий Черноморец (дебаты) - 2011 г.
Дебаты: Ричард Докинз и кардинал Джордж Пэлл / Debate: Atheist vs Christian: Richard Dawkins vs Cardinal George Pell - Австралия (дебаты) - 2012 г.
Ричард Докинз и Роуэн Уильямс - Природа человека и вопрос происхождения жизни / Richard Dawkins vs Rowan Williams: The Nature of Human Beings and the Question of their Ultimate Origin - Великобритания (дебаты) - 2012 г.
Неверующие / The Unbelievers - США, реж. Гас Холверда / Gus Holwerda (документальный) - 2013 г.

Сэмпл: http://multi-up.com/943052
Качество: DVDRip
Формат: AVI
Видео-кодек: XviD
Аудио-кодек: AC3
Видео: 720x400 (1.80:1), 25 fps, XviD build 47 ~1198 kbps avg, 0.17 bit/pixel
Аудио: 48 kHz, AC3 Dolby Digital, 2/0 (L,R) ch, ~192.00 kbps |MVO| студия «Это Работает»
MedioInfo
Общее
Формат : AVI
Формат/Информация : Audio Video Interleave
Размер файла : 478 Мбайт
Продолжительность : 47 м.
Общий поток : 1397 Кбит/сек
TCOD : 0
TCDO : 28700400000
Видео
Идентификатор : 0
Формат : MPEG-4 Visual
Профиль формата : Advanced [email protected]
Параметр BVOP формата : 1
Параметр QPel формата : Нет
Параметр GMC формата : Без точки перехода
Параметр матрицы формата : Default (MPEG)
Идентификатор кодека : XVID
Идентификатор кодека/Подсказка : XviD
Продолжительность : 47 м.
Битрейт : 1091 Кбит/сек
Ширина : 720 пикселей
Высота : 400 пикселей
Соотношение сторон : 16:9
Частота кадров : 25,000 кадров/сек
Цветовое пространство : YUV
Субдискретизация насыщенности : 4:2:0
Битовая глубина : 8 бит
Тип развёртки : Прогрессивная
Метод сжатия : С потерями
Бит/(Пиксели*Кадры) : 0.152
Размер потока : 373 Мбайт (78%)
Библиотека кодирования : XviD 1.2.0.dev47 (UTC 2006-11-01)
Аудио
Идентификатор : 1
Формат : AC-3
Формат/Информация : Audio Coding 3
Расширение режима : CM (complete main)
Параметр Endianness формата : Big
Идентификатор кодека : 2000
Продолжительность : 47 м.
Вид битрейта : Постоянный
Битрейт : 192 Кбит/сек
Каналы : 2 канала
Расположение каналов : Front: L R
Частота : 48,0 КГц
Битовая глубина : 16 бит
Метод сжатия : С потерями
Размер потока : 65,7 Мбайт (14%)
Выравнивание : Соединение по промежуткам
Продолжительность промежутка : 40 мс. (1,00 видеокадр)
Время предзагрузки промежутка : 32 мс.
Cкриншоты
Зарегистрирован:
  • 22-Янв-14 23:00
  • Скачан: 1,595 раз

Скачать .torrent

Скачать .torrent

19 KB

Тип: обычная
Статус: проверено
Размер: 478 MB  ·  magnet88DF68F831731A9A18ACAC0F34D8D579769B8A75
  • Свернуть поддиректории
  • Развернуть
  • Переключить
  • Увел./умен. окно
загружается...
Последние поблагодарившие

ermek_hunter

Стаж: 5 лет 2 месяца

Сообщений: 1


ermek_hunter · 03-Янв-15 22:56 (спустя 11 месяцев, ред. 03-Янв-15 22:56)

Д: - А вы ей не рассказывали, что мир был сотворен за шесть дней?
Х: - Нет, мусульмане не разделяют этого мнения.
Д: - Я рад это слышать.
"Он сотворил небеса и землю и то, что между ними, за шесть дней, а потом вознесся на Трон. Он — Милостивый. Спрашивай об этом Ведающего. " (Коран, 25:59)
Д: - Давайте разберемся. За вероотступничество лишают жизни?.
Х: - Нет.
Д: - О, я рад это слышать.
"Убивайте их (многобожников), где бы вы их ни встретили, и изгоняйте их оттуда, откуда они вас изгнали. Искушение хуже, чем убийство. Но не сражайтесь с ними у Заповедной мечети, пока они не станут сражаться с вами в ней. Если же они станут сражаться с вами, то убивайте их. Таково воздаяние неверующим! " (Коран, 2:191)
Убийство вероотступников: 2:191, 2:216, 2:217, 2:244, 4:76, 4:90, 4:91 и т.д.)

cover-13

Стаж: 8 лет 4 месяца

Сообщений: 307

flag

cover-13 · 17-Янв-16 01:49 (спустя 1 год, ред. 03-Окт-16 16:54)

журналист просто раскатал этого зазнайку, из всех его пустых фактов было понятно только что ему ближе научная сказка чем религиозная. благодарю, узнал новое и еще больше укрепил свои убеждения.

st-MK

Стаж: 8 лет 5 месяцев

Сообщений: 484

flag

st-MK · 26-Мар-16 20:59 (спустя 2 месяца 9 дней)

Поражаюсь терпению учёного, слушающего бред типа "Да, я верю, что Мухаммед летал на небеса на крылатом скакуне и разделил луну надвое, но вы докажите, что этого не было!" Ведущий вместо цивилизованной беседы на протяжении всех дебатов наезжает на Докинза и пытается взять его на понт, вырывая фразы из контекста и оперируя сомнительными источниками. Как типично.

amik-strike

Стаж: 10 лет

Сообщений: 4

flag

amik-strike · 19-Апр-16 11:08 (спустя 23 дня)

st-MK писал(а):
70345556Поражаюсь терпению учёного, слушающего бред типа "Да, я верю, что Мухаммед летал на небеса на крылатом скакуне и разделил луну надвое, но вы докажите, что этого не было!" Ведущий вместо цивилизованной беседы на протяжении всех дебатов наезжает на Докинза и пытается взять его на понт, вырывая фразы из контекста и оперируя сомнительными источниками. Как типично.
раскатал )))

tanya_

Стаж: 10 лет 1 месяц

Сообщений: 7


tanya_ · 24-Авг-16 14:56 (спустя 4 месяца 5 дней)

st-MK писал(а):
70345556Поражаюсь терпению учёного, слушающего бред типа "Да, я верю, что Мухаммед летал на небеса на крылатом скакуне и разделил луну надвое, но вы докажите, что этого не было!" Ведущий вместо цивилизованной беседы на протяжении всех дебатов наезжает на Докинза и пытается взять его на понт, вырывая фразы из контекста и оперируя сомнительными источниками. Как типично.
Он, наверное, и в Коня-Горбунка верит. А почему нет? Пусть Докинз докажет, что не было такого

Artur the Hun

Стаж: 8 лет 11 месяцев

Сообщений: 77

flag

Artur the Hun · 03-Окт-16 16:04 (спустя 1 месяц 10 дней)

Браво!!!
tanya_ писал(а):
71284224
st-MK писал(а):
70345556Поражаюсь терпению учёного, слушающего бред типа "Да, я верю, что Мухаммед летал на небеса на крылатом скакуне и разделил луну надвое, но вы докажите, что этого не было!" Ведущий вместо цивилизованной беседы на протяжении всех дебатов наезжает на Докинза и пытается взять его на понт, вырывая фразы из контекста и оперируя сомнительными источниками. Как типично.
Он, наверное, и в Коня-Горбунка верит. А почему нет? Пусть Докинз докажет, что не было такого
 
Loading...
Error