Chris Rea - Rockpalast Open Air Festival 1985. [2016, Soft rock/Blues rock, HDTVRip]

Страницы:  1

Модераторы

Ответить
Статистика раздачи
Размер:  1.37 GB   |   Зарегистрирован:  1 год 5 месяцев   |   .torrent скачан:  328 раз
Сиды:  1
Автор
Сообщение

kosty loganok

Top Seed 06* 1280r

Стаж: 8 лет 5 месяцев

Сообщений: 4056

flag

kosty loganok · 25-Дек-16 08:39 (1 год 5 месяцев назад, ред. 25-Дек-16 08:42)

 

Chris Rea - Rockpalast Open Air Festival 1985. Жанр: Soft rock/Blues rock
Продолжительность: 01:23:40.
Год выпуска: 2016
Описание: Выступление Криса Ри в рамках музыкального фестивале Rockpalast на сцене театра под открытым небом Loreley в немецком Санкт-Гоарсхаузене aug 17, 1985
Кристофер «Крис» Энтон Ри (англ. Christopher Anton Rea, род. 4 марта 1951, Мидлсбро, Северный Йоркшир, Англия) — британский певец и автор песен, известный своим характерным хриплым голосом и игрой на слайд-гитаре.
Вершины своего успеха певец добился в конце 1980-х — начале 1990-х годов, с выпуском своего десятого студийного альбома «The Road to Hell» (1989), который многие считают одним из его лучших.

( материалом поделилась Verue )
Треклист:
Bombollini
Ace of Hearts
Candles
Shamrock Diaries
Dancing Shoes
Love's Strange Ways
One Golden Rule
Josephine
Stainsby Girls
I Can Hear Your Heartbeat
I Don't Know What It Is But I Love It
Steel River
Touché d'Amour

Доп. информация: по видео
скрытый текст
File: Chris Rea. Rockpalast Open Air Festival 1985.avi
Filesize: 1404.54 Mb ( 1 472 763 468 bytes )
Play length: 01:23:40.040 (125501 frames)
Subtitles: Not Present
Video: 640x480 (1.33:1), 25 fps, XviD build 63 ~2147 kbps avg, 0.28 bit/pixel
Audio: 48 kHz, MPEG Layer 3, 2 ch, ~192.00 kbps avg
Полное имя \Chris Rea. Rockpalast Open Air Festival 1985.avi
Формат : AVI
Формат/Информация : Audio Video Interleave
Профиль формата : OpenDML
Размер файла : 1,37 Гбайт
Продолжительность : 1 ч. 23 м.
Общий поток : 2347 Кбит/сек
Программа кодирования : Lavf51.12.1
Видео
Идентификатор : 0
Формат : xvid
Идентификатор кодека : xvid
Продолжительность : 1 ч. 23 м.
Битрейт : 2140 Кбит/сек
Ширина : 640 пикселей
Высота : 480 пикселей
Соотношение сторон : 4:3
Частота кадров : 25,000 кадров/сек
Бит/(Пиксели*Кадры) : 0.279
Размер потока : 1,25 Гбайт (91%)
Аудио
Идентификатор : 1
Формат : MPEG Audio
Версия формата : Version 1
Профиль формата : Layer 3
Режим : Joint stereo
Расширение режима : MS Stereo
Идентификатор кодека : 55
Идентификатор кодека/Подсказка : MP3
Продолжительность : 1 ч. 23 м.
Вид битрейта : Постоянный
Битрейт : 192 Кбит/сек
Каналы : 2 канала
Частота : 48,0 КГц
Метод сжатия : С потерями
Размер потока : 115 Мбайт (8%)
Выравнивание : Соединение по промежуткам
Продолжительность промежутка : 24 мс. (0,60 видеокадр)
Время предзагрузки промежутка : 24 мс.
Источник: собственный рип
Cсылка http://ROSTRACKER.XYZ/viewtopic.php?t=5326134
Качество: HDTVRip
Контейнер: AVI
Видео кодек: XviD
Аудио кодек: MP3
Видео: 640x480 (1.33:1), 25 fps, XviD build 63 ~2147 kbps avg, 0.28 bit/pixel
Аудио: 48 kHz, MPEG Layer 3, 2 ch, ~192.00 kbps avg
Скриншоты
Мои другие раздачи 1 - http://ROSTRACKER.XYZ/tracker.php?rid=14861751
Мои другие раздачи 2- http://ROSTRACKER.XYZ/tracker.php?rid=26740408Приятного просмотра!
Зарегистрирован:
  • 25-Дек-16 08:39
  • Скачан: 328 раз

Скачать .torrent

Скачать .torrent

14 KB

Тип: обычная
Статус: проверено
Размер: 1.37 GB  ·  magnetC7CABB434B945F8BD442C5C6141F97506CE40900
  • Свернуть поддиректории
  • Развернуть
  • Переключить
  • Увел./умен. окно
загружается...
Последние поблагодарившие

не все то золото что блестит

bot · 15-Окт-17 14:31 (спустя 9 месяцев)

Тема была перенесена из форума Rock (Видео) в форум Джаз и Блюз (Видео)
oleg-1937
 

P555V

Стаж: 5 лет 5 месяцев

Сообщений: 2

flag

P555V · 08-Мар-18 21:04 (спустя 1 год 2 месяца)

Добый вечер.
Скажите пожалуйста, за чем ВСЕ портить и гнать в МР3.
Разве вообще существует НАСТОЯЩЕЙ МУЗЫКИ в МР3 ?????

kosty loganok

Top Seed 06* 1280r

Стаж: 8 лет 5 месяцев

Сообщений: 4056

flag

kosty loganok · 21-Мар-18 19:51 (спустя 12 дней)

P555V писал(а):
74942302Добый вечер.
Скажите пожалуйста, за чем ВСЕ портить и гнать в МР3.
Разве вообще существует НАСТОЯЩЕЙ МУЗЫКИ в МР3 ?????
если вас интересуют другие форматы ..на здоровье..здесь никто никого не заставляет скачивать то что не устраивает...

не все то золото что блестит
 
Loading...
Error